#TITLE:三国恋;
#SUBTITLE:;
#ARTIST:TANK;
#TITLETRANSLIT:;
#SUBTITLETRANSLIT:;
#ARTISTTRANSLIT:;
#CREDIT:;
#BANNER:_logo.jpg;
#BACKGROUND:_bg.jpg;
#LYRICSPATH:;
#CDTITLE:Lan.png;
#MUSIC:.mp3;
#OFFSET:-0.020;
#SAMPLESTART:100.000;
#SAMPLELENGTH:12.000;
#SELECTABLE:YES;
#BPMS:0.000=152.000,43.000=76.000,43.500=228.000,45.000=76.000,45.500=228.000,47.000=152.000,49.000=76.000,49.500=228.000,51.000=76.000,51.500=228.000,53.000=76.000,53.500=228.000,55.000=152.000,73.000=228.000,76.000=152.000,171.500=76.000,171.625=228.000,172.000=152.000,203.500=76.000,203.625=228.000,204.000=152.000,237.000=76.000,237.250=228.000,238.000=152.000,241.000=76.000,241.250=228.000,242.000=152.000,245.000=76.000,245.250=228.000,246.000=152.000,347.500=76.000,347.625=228.000,348.000=152.000,379.500=76.000,379.625=228.000,380.000=152.000,443.500=76.000,443.625=228.000,444.000=152.000,445.500=76.000,445.625=228.000,446.000=152.000,447.500=76.000,447.625=228.000,448.000=152.000,449.500=76.000,449.625=228.000,450.000=152.000,451.500=76.000,451.625=228.000,452.000=152.000,453.500=76.000,453.625=228.000,454.000=152.000,455.500=76.000,455.625=228.000,456.000=152.000,474.000=304.000;
#STOPS:;
#BGCHANGES:;
// cache tags:
#FIRSTBEAT:9.000;
#LASTBEAT:486.000;
#SONGFILENAME:Songs/lan sky/SanGuoLian/.sm;
#HASMUSIC:1;
#HASBANNER:1;
#MUSICLENGTH:193.532;
// end cache tags

//---------------dance-single - sky----------------
#NOTES:
     dance-single:
     sky:
     Hard:
     10:
     0.706,0.942,1.000,0.253,0.034,619.000,273.000,49.000,0.000,85.000:

0000
0000
0000
0000
,
0000
0000
0000
0000
,
0000
0000
0000
0000
0001
0000
0001
0000
0001
0000
0101
0010
1001
0000
0000
0000
,
0000
0000
0101
0000
1000
0100
0001
0100
,
1010
0000
0101
0000
1000
0100
0010
0000
,
0000
0000
0100
0010
1001
0000
0100
0000
0010
0000
0000
0000
1002
0000
0010
0000
,
0100
0010
1000
1000
0100
0010
1103
0000
,
0000
0000
1010
0000
0100
1000
0010
0100
,
1000
1000
1010
0000
0100
0000
0110
0000
,
0011
0000
1010
0000
0100
0000
0001
0010
,
1000
0100
0110
0010
0010
0010
1010
0000
,
0000
0000
0101
0000
0000
0000
1010
0100
,
0010
0010
0101
0000
0000
0000
1010
0000
,
0000
0000
1010
0000
0000
0000
1010
0100
,
0010
0000
1000
0000
0100
0000
0100
0000
1010
0100
0010
0000
0011
0000
0110
0000
,
1100
0110
0101
1010
0101
1010
0110
1100
,
0011
0110
0101
1010
1010
0101
1110
0000
,
0100
0000
0000
0000
1001
0000
0000
0000
0000
0000
0101
0000
0010
0100
1000
0000
,
0001
0010
0100
1000
0020
0000
0000
0000
0000
0000
0000
0000
0000
0000
0000
0000
,
1130
0100
0101
0100
,
1100
0010
0100
0010
0101
0000
0100
0000
,
1100
0100
0101
0100
,
1100
0000
0010
0000
0101
0000
1000
0100
0001
0000
0010
0000
0001
0000
0010
0000
,
1102
1000
1013
1000
,
1102
1000
1013
1000
,
1102
1000
1013
1000
,
0020
0000
0100
0000
1030
0000
0100
0010
,
0200
1000
1301
0100
,
1001
0100
0010
0100
1001
0000
0100
0000
,
1001
0000
0110
0011
0110
0000
1100
0110
,
1100
0000
0110
0011
0110
0011
1100
0110
,
1100
0100
1001
0010
,
0101
0010
1010
0100
,
0101
0010
0101
0010
,
1010
0011
0101
0110
1000
1000
0110
0010
,
1102
0000
1023
0000
,
1130
1100
1010
0100
,
1200
0000
0000
0000
1301
0000
0002
0100
,
1100
1100
1010
0103
,
1102
0000
0000
0000
1023
0000
0000
0100
,
1130
1100
1010
0020
,
1102
0000
0000
0000
1033
0000
0100
0010
,
1100
0110
1100
0110
0010
0010
0010
0010
,
1001
0100
0110
0010
,
0100
0010
0100
0010
1001
0000
0100
0000
,
0101
0010
1010
0101
,
0001
0010
0001
0010
1001
0100
0010
0000
,
1012
1000
1023
1100
,
1032
0100
1100
0100
1023
0000
1100
0000
,
1230
1001
1001
1301
,
1000
0100
1000
0100
1000
1000
1000
1000
,
1001
0000
0100
1001
,
0010
0100
0010
0100
1001
0000
0010
0000
,
1001
0100
1001
0010
,
0100
0010
0100
0010
1001
0010
0000
0000
,
1102
1000
1123
1000
,
1230
0010
1000
0010
0311
0000
0002
0000
,
0110
0110
1010
0003
,
0010
0100
0010
0100
0010
0010
0010
0010
,
1001
0000
0010
0000
0000
1001
0000
0000
,
1001
0000
0010
0000
0000
1001
0000
0000
,
1001
0000
0010
0000
0000
1001
0000
0000
,
1001
0000
0020
0000
0100
0100
0130
0100
,
1010
0100
0010
0001
1010
0000
0000
0000
,
0101
0010
0100
1000
0101
0000
1000
0000
,
0101
0010
0101
1010
0100
0000
0001
0000
,
1010
0000
0100
0000
1010
0000
0101
0010
1000
0000
0100
0000
0010
0000
0001
0000
,
0110
0100
1100
0100
,
0010
0100
1000
1000
0110
0000
1010
0000
,
0100
0010
0110
1010
,
0020
0000
1000
0000
0130
0000
0010
0100
,
2000
0000
0010
0000
3110
0000
1001
0010
,
0101
0010
0100
0010
1001
0000
0101
0000
,
2000
0000
0110
0011
0110
0000
0011
0110
,
0011
0000
0110
0011
0110
0011
0011
0110
,
3011
0000
0100
0010
1001
0000
0100
0000
,
0010
0010
1010
0100
,
0020
0000
1000
0000
1130
0000
0101
0010
,
0100
1000
0100
0010
0010
1001
0011
0000
,
2000
0000
0010
0000
3200
0000
1000
0010
,
0311
0011
1010
0101
,
2001
0000
0010
0000
3101
0000
1020
0100
,
1100
1100
1031
0010
,
1102
0000
0000
0000
1023
0000
0000
0100
,
1130
1100
1010
0020
,
1102
0000
0000
0000
1033
0000
0100
0010
,
1100
0110
1100
0110
0010
0010
0010
0010
,
1001
0100
0110
0010
,
0100
0010
0100
0010
1001
0000
0100
0000
,
0101
0010
1010
0101
,
0001
0010
0001
0010
1001
0110
0010
0001
,
1012
1000
1023
1100
,
1032
0100
1100
0100
1023
0000
1100
0000
,
1230
1001
1001
1301
,
1000
0100
1000
0100
1000
1000
1000
1000
,
1001
0000
0100
1001
,
0010
0100
0010
0100
1001
0000
0010
0000
,
1001
0100
1001
0010
,
0100
0010
0100
0010
1001
0010
0000
0000
,
1102
1000
1123
1000
,
1230
0010
1000
0010
0311
0000
0002
0000
,
0110
0110
1010
0003
,
0010
0100
0010
0100
0010
0010
0010
0010
,
1001
0000
0000
0000
0101
0000
1000
0100
,
0001
0100
1010
0000
0101
0000
1000
0100
,
0010
0000
0000
0000
0000
0000
0100
0010
1001
0000
0100
0000
0010
0000
0000
0000
,
1002
0010
0100
0010
1000
1000
0100
0010
,
1103
0000
0000
0000
1010
0000
0100
1000
,
0010
0100
1000
1000
1010
0000
0100
0000
,
0110
0011
1010
0100
,
0001
0010
1000
0100
0110
0010
0010
0010
,
1010
0100
0101
0010
,
1010
0100
0101
0010
,
1010
0100
0101
0010
,
1010
0000
0000
0000
0100
0000
0000
0000
0100
0000
0100
0000
1010
0100
0010
0000
,
0011
0110
1100
0110
0101
1010
0101
1010
,
0110
1100
0011
0110
0101
1010
1010
0101
,
1110
0000
0100
0000
1001
0000
0000
0101
,
0001
0010
0100
0000
0001
0010
0100
1000
0010
0000
0000
0000
0010
0000
0000
0000
,
0010
0010
2002
0000
,
0000
0000
0000
0000
,
0000
0000
3003
0000
;
